User:Stephensd/Sandbox

From M3P
Jump to: navigation, search

User:stephensd/Sandbox/TestMain


  • The cue file to be processed is : Cue:ExampleSystemTest
  • Here are the columns to be displayed: track,artist,title,due
  • And this is the table width: 80%
  • Semantic MediaWiki Extensions on? : 1

{{

  1. invoke:ParseCue|parse

|cuefile=REM GENRE "Progressive Rock" REM DATE 1971 REM DISCID 470AF906 REM COMMENT "ExactAudioCopy v0.99pb5" PERFORMER "PINK FLOYD" TITLE "MEDDLE" FILE "01 - One Of These Days.wav" WAVE TRACK 01 AUDIO TITLE "One Of These Days" PERFORMER "PINK FLOYD" INDEX 01 00:00:00 FILE "02 - A Pillow Of Winds.wav" WAVE TRACK 02 AUDIO TITLE "A Pillow Of Winds" PERFORMER "PINK FLOYD" INDEX 01 00:00:00 FILE "03 - Fearless.wav" WAVE TRACK 03 AUDIO TITLE "Fearless" PERFORMER "PINK FLOYD" INDEX 01 00:00:00 FILE "04 - San Tropez.wav" WAVE TRACK 04 AUDIO TITLE "San Tropez" PERFORMER "PINK FLOYD" INDEX 01 00:00:00 FILE "05 - Seamus.wav" WAVE TRACK 05 AUDIO TITLE "Seamus" PERFORMER "PINK FLOYD" INDEX 01 00:00:00 FILE "06 - Echoes.wav" WAVE TRACK 06 AUDIO TITLE "Echoes" PERFORMER "PINK FLOYD" INDEX 01 00:00:00 |cols=track,artist,title,due |width=80% |smw={Template:Smw }}

{{#display_map:35.899166690427954,14.511646628379822~M3P Foundation~57 Triq Santa Lucija

|height=600px
|width=400px
|resizable=yes
|copycoords=yes

}}


Mark For Deletion Icon 2014.png

This page is marked for deletion. The given reason is: None specified. If you disagree with its deletion, please discuss your reasons on this page or on its associated talk page, as applicable.

Remember to check if anything links here and [http://www.m3p.com.mt/wiki/index.php?title=User:Stephensd/Sandbox&action=history the page history] before deleting.


Last edit by Stephensd (talk · contrib) Last edited: Fri, 28 Aug 2015 11:26:13 +0000




{{#invoke:Message box|ombox}}


{{#invoke:Side box|main}}

{{#invoke:Side box|main}}