Cue:ExampleSystemTest

From M3P
Jump to navigation Jump to search

REM GENRE "Progressive Rock" REM DATE 1971 REM DISCID 470AF906 REM COMMENT "ExactAudioCopy v0.99pb5" PERFORMER "PINK FLOYD" TITLE "MEDDLE" FILE "01 - One Of These Days.wav" WAVE TRACK 01 AUDIO TITLE "One Of These Days" PERFORMER "PINK FLOYD" INDEX 01 00:00:00 FILE "02 - A Pillow Of Winds.wav" WAVE TRACK 02 AUDIO TITLE "A Pillow Of Winds" PERFORMER "PINK FLOYD" INDEX 01 00:00:00 FILE "03 - Fearless.wav" WAVE TRACK 03 AUDIO TITLE "Fearless" PERFORMER "PINK FLOYD" INDEX 01 00:00:00 FILE "04 - San Tropez.wav" WAVE TRACK 04 AUDIO TITLE "San Tropez" PERFORMER "PINK FLOYD" INDEX 01 00:00:00 FILE "05 - Seamus.wav" WAVE TRACK 05 AUDIO TITLE "Seamus" PERFORMER "PINK FLOYD" INDEX 01 00:00:00 FILE "06 - Echoes.wav" WAVE TRACK 06 AUDIO TITLE "Echoes" PERFORMER "PINK FLOYD" INDEX 01 00:00:00